#TITLE:Two Of Us;
#SUBTITLE:;
#ARTIST:Chae Yeon;
#TITLETRANSLIT:Two Of Us;
#SUBTITLETRANSLIT:;
#ARTISTTRANSLIT:Chae Yeon;
#CREDIT:;
#BANNER:Two Of Us-bn.png;
#BACKGROUND:Two Of Us-bg.png;
#LYRICSPATH:;
#CDTITLE:pm4cd.png;
#MUSIC:Two Of Us.mp3;
#OFFSET:-0.060;
#SAMPLESTART:60.114;
#SAMPLELENGTH:20.000;
#SELECTABLE:YES;
#BPMS:0.000=100.010,34.250=200.030,38.250=100.010,68.250=50.010,69.250=100.010,81.000=50.010,81.125=200.030,81.250=100.010,81.875=50.010,82.000=200.031,82.125=100.010,82.750=50.010,82.875=200.030,83.000=100.010,96.750=50.010,96.875=200.031,97.000=100.010,97.625=50.010,97.750=200.030,97.875=100.010,98.500=50.010,98.625=200.031,98.750=100.010,194.875=50.010,195.875=100.010,207.625=50.010,207.750=200.031,207.875=100.010,208.500=50.010,208.625=200.031,208.750=100.010,209.375=50.010,209.500=200.031,209.625=100.010,223.375=50.010,223.500=200.031,223.625=100.010,224.250=50.010,224.375=200.031,224.500=100.010,225.125=50.010,225.250=200.031,225.375=100.010,298.000=200.031,299.500=100.010;
#STOPS:;
#BGCHANGES:;
// cache tags:
#FIRSTBEAT:16.250;
#LASTBEAT:299.250;
#SONGFILENAME:Songs/Music V.I.P ^_^/Two Of Us/Two Of Us.sm;
#HASMUSIC:1;
#HASBANNER:1;
#MUSICLENGTH:183.102;
// end cache tags

//---------------dance-single - ----------------
#NOTES:
     dance-single:
     :
     Hard:
     9:
     0.825,0.817,1.000,0.027,1.000,716.000,303.000,5.000,0.000,34.000:
0000
0000
0000
0000
,
0000
0000
0000
0000
,
0000
0000
0000
0000
,
0000
0000
0000
0000
,
0000
1100
0000
0100
0000
0101
0000
0100
0000
0110
0000
0100
0010
1100
0000
0000
,
0000
1001
0000
0100
0000
0001
0000
0010
0000
1100
0010
1100
0000
0110
0000
0010
,
0000
0101
0000
0101
0000
1010
0100
1010
0000
1010
0000
0001
0000
0011
0000
0001
,
0000
1001
0000
0100
0000
1100
0000
0010
0000
0011
1000
0011
0000
0110
0000
1000
,
0000
1100
0000
1100
0000
0011
0010
0011
0000
2010
0000
0000
0000
0001
0000
0000
,
0000
0100
0000
0001
0000
0010
0000
0100
0000
3011
0000
1100
0000
1000
0100
0010
,
0100
1010
0000
0101
0000
0100
0010
0100
1000
0110
0000
0001
0000
1001
0000
0100
,
0000
0011
0000
0010
0000
0001
0010
0100
0010
0101
0000
1010
0000
0001
0010
0100
,
0010
1100
0000
0001
0000
0100
1000
1000
0100
0011
0000
0010
0000
1100
0000
0100
,
0000
1001
0000
0010
0000
0110
0000
0010
0000
1010
0000
0100
0000
0101
0000
0010
,
0000
1001
0000
0001
0000
1100
0000
0010
0000
0101
0000
0100
0000
1001
0000
0010
,
0000
1100
0000
1000
0000
1001
0000
0010
0000
0011
0000
0010
0000
1001
0000
0100
,
0000
0011
0000
1000
0000
0101
0000
0010
0000
1101
0000
1101
0000
1011
0000
1011
,
0000
0000
1220
0000
0000
0000
0000
0000
0000
0330
0110
0000
0000
0000
0001
0000
0010
0000
1100
0000
0000
0000
1000
0000
0100
0000
0011
0000
0000
0000
0100
0000
,
0000
0110
0000
0100
0010
0101
0000
0010
0100
1010
0000
1000
0000
0101
0000
0100
,
0000
0110
0000
1000
0000
1001
0000
0100
0100
0011
0000
0001
0001
1010
0000
0100
,
0000
0000
0000
0000
0011
0000
0000
0000
0000
0000
0000
0000
1000
0000
0000
0000
0000
0000
0000
0000
1101
0000
0000
0000
0000
0000
0000
0100
0000
0000
0000
0000
0000
0000
1011
0000
0000
0000
0000
0000
0000
0001
0000
0000
0000
0000
0000
0000
0111
0000
0000
0000
0000
0000
0000
0000
1000
0000
0000
0000
0000
0000
0000
0000
,
1100
0000
0100
0000
0011
0000
0100
0100
1010
0000
0010
0010
0101
0000
0100
0000
,
0011
0000
0001
0000
0011
0000
1000
1000
0110
0000
0010
0100
1100
0000
0001
0000
,
1010
0000
0100
0000
1001
0000
0100
0001
0011
0000
0010
0100
1010
0000
0100
0000
,
1001
0000
0000
0000
0000
0000
0000
0000
0010
0000
0000
0000
0000
0000
0000
0000
1101
0000
0000
0000
0000
0000
0000
0100
0000
0000
0000
0000
0000
0000
1011
0000
0000
0000
0000
0000
0000
0010
0000
0000
0000
0000
0000
0000
1110
0000
0000
0000
0000
0000
0000
0000
0000
0000
0001
0000
0000
0000
0000
0000
0000
0000
1010
0000
,
0000
0001
0000
0010
0000
0000
0000
1001
0000
0100
0000
0010
0000
0001
0000
0010
0000
0100
0000
1000
0000
0000
0000
0110
0000
0010
0000
0110
0000
0000
0000
1001
,
0000
0000
0000
0100
0000
0000
0000
1100
0000
0000
0000
1100
0000
0000
0000
0101
0000
0100
0000
0101
0000
0000
0000
1001
0000
0000
0000
0010
0000
0000
0000
1100
,
0000
0000
0000
1000
0000
0000
0000
0101
0000
0000
0000
0010
0000
0000
0000
0011
0000
0000
0000
0100
0000
0000
0000
0011
0000
0000
0000
0100
0000
0000
0000
1010
,
0000
0000
0000
0010
0000
0000
0000
1100
0000
0000
0000
0010
0000
0000
0000
0101
0000
0000
0000
0100
0000
0000
0000
1001
0000
0000
0000
0100
0000
0000
0000
0110
,
0000
0000
0000
0001
0000
0000
0000
1100
0000
0010
0000
0100
0000
1000
0000
0100
0000
0010
0000
0001
0000
0000
0000
1100
0000
1000
0000
1100
0000
0000
0000
0110
,
0000
0000
0000
0001
0000
0000
0000
1010
0000
0000
0000
1010
0000
0000
0000
0101
0000
0001
0000
0101
0000
0000
0000
1001
0000
0000
0000
0010
0000
0000
0000
1100
,
0000
0000
0000
1000
0000
0000
0000
0110
0000
0000
0000
0001
0000
0000
0000
1010
0000
0000
0000
0100
0000
0000
0000
0011
0000
0000
0000
1000
0000
0000
0000
0101
,
0000
0000
0000
0010
0000
0000
0000
1001
0000
0000
0000
0010
0000
0000
0000
1100
0000
0000
0000
0001
0000
0000
0000
1010
0000
0000
0000
0100
0000
0000
0000
0011
,
0000
0000
0000
1000
0000
0000
0000
0101
0000
0000
0000
1000
0000
1000
0000
0101
0000
1000
0000
0000
0000
0010
0000
0011
0000
1000
0000
0010
0000
0001
0000
0110
,
0000
0100
0000
0000
0000
0000
0000
1001
0000
0000
0000
0100
0000
0100
0000
1010
0000
0100
0000
0000
0000
0001
0000
1010
0000
0100
0000
0001
0000
0010
0000
0101
,
0000
1000
0000
0100
0000
0010
0000
0011
0000
0000
0000
0100
0000
0100
0000
1010
0000
0001
0000
0000
0000
0010
0000
0110
0000
1000
0000
0100
0000
0001
0000
1010
,
0000
1000
0000
0000
0000
0000
0000
1001
0000
0000
0000
0001
0000
0001
0000
0110
0000
1000
0000
0000
0000
1000
0000
1100
0000
0001
0000
0100
0000
1000
0000
1001
,
0000
0100
0000
0010
0000
0001
0000
0101
0000
0000
0000
1000
0000
1000
0000
0110
0000
0001
0000
0000
0000
0001
0000
1001
0000
0010
0000
0100
0000
0010
0000
1100
,
0000
0010
0000
0100
0000
1000
0000
1001
0000
0000
0000
0001
0000
0001
0000
1100
0000
0010
0000
0000
0000
0100
0000
0110
0000
0001
0000
0010
0000
0100
0000
1001
,
0000
0100
0000
0010
0000
0001
0000
1010
0000
0000
0000
0010
0000
0010
0000
1001
0000
0100
0000
0000
0000
0001
0000
0011
0000
0100
0000
0010
0000
0001
0000
0110
,
0000
0001
0000
0010
0000
0100
0000
0101
0000
0000
0000
1000
0000
1000
0000
0011
0000
1000
0000
0000
0000
0001
0000
1010
0000
0100
0000
0001
0000
1000
0000
0110
,
0000
0001
0000
1000
0000
0100
0000
0101
0000
0000
0000
1001
0000
0000
0000
0001
0000
0010
0000
0100
0000
0010
0000
1001
0000
0000
0000
0110
0000
0000
0000
0100
,
0000
0010
0000
0001
0000
0010
0000
1100
0000
0000
0000
0010
0000
0000
0000
0101
0000
0000
0000
0100
0000
0000
0000
1100
0000
0000
0000
0100
0000
0000
0000
1000
,
0000
0100
0000
0010
0000
0001
0000
1010
0000
0000
0000
0110
0000
0000
0000
0100
0000
0010
0000
0100
0000
1000
0000
0101
0000
0000
0000
0100
0000
0000
0000
0100
,
0000
0100
0000
0010
0000
0001
0000
0110
0000
0000
0000
0001
0000
0000
0000
1010
0000
0000
0000
0010
0000
0000
0000
0110
0000
0000
0000
1000
0000
0000
0000
0011
,
0000
0000
0000
0010
0000
0000
0000
1001
0000
0000
0000
0100
0000
0000
0000
1100
0000
0000
0000
0001
0000
0000
0000
0110
0000
0000
0000
1000
0000
0000
0000
1010
,
0000
0000
0000
0010
0000
0000
0000
0011
0000
0000
0000
1000
0000
0000
0000
0101
0000
0000
0000
0010
0000
0000
0000
1100
0000
0000
0000
0010
0000
0000
0000
1001
,
0000
0000
0000
0100
0000
0000
0000
0101
0000
0000
0000
0100
0000
0000
0000
0011
0000
0000
0000
1000
0000
0000
0000
0110
0000
0000
0000
0001
0000
0000
0000
0101
,
0000
0000
0000
1000
0000
0000
0000
1110
0000
0000
0000
1110
0000
0000
0000
1011
0000
0000
0000
1011
0000
0000
0000
2102
0000
0000
0000
0000
0000
0000
3003
0110
,
0000
0000
0000
0001
0000
0100
0000
1010
0000
0000
0000
1000
0000
0010
0000
0101
0000
0000
0000
0100
0000
0000
0000
1001
0000
0000
0000
0100
0000
0010
0000
0011
,
0000
0000
0000
0010
0000
0100
0000
1100
0000
0000
0000
0010
0000
0000
0000
0101
0000
0000
0000
1000
0000
0000
0000
1001
0000
0000
0000
0010
0000
0000
0000
1100
,
0000
0000
0000
0010
0000
0100
0000
1001
0000
0000
0000
0100
0000
0010
0000
1001
0000
0000
0000
0100
0000
0000
0000
0011
0000
0000
0000
1000
0000
0000
0000
1101
,
0000
0000
0000
0000
0000
0010
0000
0000
0000
0000
0000
0000
1011
0000
0000
0000
0000
0000
0000
1000
0000
0000
0000
0000
0000
0000
1110
0000
0000
0000
0000
0000
0000
0000
0010
0000
0000
0000
0000
0000
0000
0000
0101
0000
0000
0000
0000
0000
0000
0000
0010
0000
0000
0000
0000
0000
0000
0000
1001
0000
0000
0000
0000
0000
,
0000
1000
0000
1000
0000
1100
0000
0000
0000
0001
0000
0001
0000
0011
0000
0000
0000
0100
0000
0000
0000
0101
0000
0000
0000
0010
0000
0000
0000
1001
0000
0000
,
0000
0001
0000
0010
0000
1100
0000
0000
0000
1000
0000
0100
0000
0101
0000
0000
0000
0010
0000
0000
0000
1100
0000
0000
0000
0100
0000
0000
0000
1001
0000
0000
,
0000
1000
0000
0010
0000
0101
0000
0000
0000
0001
0000
0100
0000
1010
0000
0000
0000
0010
0000
0000
0000
0110
0000
0000
0000
0001
0000
0000
0000
1110
0000
0000
,
0000
0100
0000
0000
0000
0000
0000
0000
0111
0000
0000
0000
0000
0000
0000
1000
0000
0000
0000
0000
0000
0000
1011
0000
0000
0000
0000
0000
0000
0000
0000
0000
0100
0000
0000
0000
0000
0000
0000
0000
0101
0000
0000
0000
1000
0000
0000
0000
0100
0000
0000
0000
0000
0000
0000
0000
0011
0000
0000
0000
0100
0000
0000
0000
,
1000
0100
0010
0100
1000
0000
1010
0010
1010
0000
0110
0000
0001
0000
0110
0000
,
0110
0000
1001
1000
1001
0000
0110
0000
0001
0000
1010
0000
0100
0000
0101
0000
,
1000
1001
0010
0101
0100
1010
0001
0110
,
1000
0000
1001
0000
0010
0000
1100
0000
0010
0000
0101
0000
0010
0000
1001
0010
,
0100
1000
0100
0010
0001
0000
0101
0001
0101
0000
1010
0000
0100
0000
0011
0000
,
0011
0000
1100
1000
1100
0000
0011
0000
0100
0000
0101
0000
0010
0000
1010
0000
,
0100
0011
1000
0101
0010
1001
0100
0110
,
0001
1010
0010
0011
1000
0110
0010
1001
,
0010
0010
1100
0010
0000
0001
0011
0100
0010
0001
1010
1000
0000
0000
1101
0000
,
0001
0001
0110
1000
0000
0100
0011
0100
1000
0100
1001
0100
0010
0001
0101
0000
,
0100
0100
1001
0100
0000
0001
1001
0010
1000
0010
0101
0001
0000
0000
1110
0000
,
0010
0010
1100
0010
0000
0100
0101
0010
0100
0001
0110
0001
1000
0100
1011
0000
,
0100
0100
1010
0001
0000
0010
0011
0100
0010
0100
1010
0001
0010
1000
1101
0000
,
0010
0010
0101
1000
0000
1000
1100
0010
0001
0010
0101
1000
0100
0001
1110
0000
,
1000
1000
0110
1000
0000
1000
1010
0001
0100
1000
0101
1000
0100
0010
1101
0000
,
1001
1110
0110
1101
1100
1011
0110
0111
,
1000
0000
1001
0000
0100
0000
0101
1010
0101
0000
1010
0000
0001
0000
1100
0000
,
1100
0000
1001
0110
1001
0000
0110
0000
0000
0000
0000
0000
0000
1111
0000
0000
;

//---------------dance-single - Copied from----------------
#NOTES:
     dance-single:
     Copied from:
     Easy:
     9:
     0.825,0.817,1.000,0.027,1.000,716.000,303.000,5.000,0.000,34.000:
0000
0000
0000
0000
,
0000
0000
0000
0000
,
0000
0000
0000
0000
,
0000
0000
0000
0000
,
0000
1100
0000
0100
0000
0101
0000
0100
0000
0110
0000
0100
0010
1100
0000
0000
,
0000
1001
0000
0100
0000
0001
0000
0010
0000
1100
0010
1100
0000
0110
0000
0010
,
0000
0101
0000
0101
0000
1010
0100
1010
0000
1010
0000
0001
0000
0011
0000
0001
,
0000
1001
0000
0100
0000
1100
0000
0010
0000
0011
1000
0011
0000
0110
0000
1000
,
0000
1100
0000
1100
0000
0011
0010
0011
0000
2010
0000
0000
0000
0001
0000
0000
,
0000
0100
0000
0001
0000
0010
0000
0100
0000
3011
0000
1100
0000
1000
0100
0010
,
0100
1010
0000
0101
0000
0100
0010
0100
1000
0110
0000
0001
0000
1001
0000
0100
,
0000
0011
0000
0010
0000
0001
0010
0100
0010
0101
0000
1010
0000
0001
0010
0100
,
0010
1100
0000
0001
0000
0100
1000
1000
0100
0011
0000
0010
0000
1100
0000
0100
,
0000
1001
0000
0010
0000
0110
0000
0010
0000
1010
0000
0100
0000
0101
0000
0010
,
0000
1001
0000
0001
0000
1100
0000
0010
0000
0101
0000
0100
0000
1001
0000
0010
,
0000
1100
0000
1000
0000
1001
0000
0010
0000
0011
0000
0010
0000
1001
0000
0100
,
0000
0011
0000
1000
0000
0101
0000
0010
0000
1101
0000
1101
0000
1011
0000
1011
,
0000
0000
1220
0000
0000
0000
0000
0000
0000
0330
0110
0000
0000
0000
0001
0000
0010
0000
1100
0000
0000
0000
1000
0000
0100
0000
0011
0000
0000
0000
0100
0000
,
0000
0110
0000
0100
0010
0101
0000
0010
0100
1010
0000
1000
0000
0101
0000
0100
,
0000
0110
0000
1000
0000
1001
0000
0100
0100
0011
0000
0001
0001
1010
0000
0100
,
0000
0000
0000
0000
0011
0000
0000
0000
0000
0000
0000
0000
1000
0000
0000
0000
0000
0000
0000
0000
1101
0000
0000
0000
0000
0000
0000
0100
0000
0000
0000
0000
0000
0000
1011
0000
0000
0000
0000
0000
0000
0001
0000
0000
0000
0000
0000
0000
0111
0000
0000
0000
0000
0000
0000
0000
1000
0000
0000
0000
0000
0000
0000
0000
,
1100
0000
0100
0000
0011
0000
0100
0100
1010
0000
0010
0010
0101
0000
0100
0000
,
0011
0000
0001
0000
0011
0000
1000
1000
0110
0000
0010
0100
1100
0000
0001
0000
,
1010
0000
0100
0000
1001
0000
0100
0001
0011
0000
0010
0100
1010
0000
0100
0000
,
1001
0000
0000
0000
0000
0000
0000
0000
0010
0000
0000
0000
0000
0000
0000
0000
1101
0000
0000
0000
0000
0000
0000
0100
0000
0000
0000
0000
0000
0000
1011
0000
0000
0000
0000
0000
0000
0010
0000
0000
0000
0000
0000
0000
1110
0000
0000
0000
0000
0000
0000
0000
0000
0000
0001
0000
0000
0000
0000
0000
0000
0000
1010
0000
,
0000
0001
0000
0010
0000
0000
0000
1001
0000
0100
0000
0010
0000
0001
0000
0010
0000
0100
0000
1000
0000
0000
0000
0110
0000
0010
0000
0110
0000
0000
0000
1001
,
0000
0000
0000
0100
0000
0000
0000
1100
0000
0000
0000
1100
0000
0000
0000
0101
0000
0100
0000
0101
0000
0000
0000
1001
0000
0000
0000
0010
0000
0000
0000
1100
,
0000
0000
0000
1000
0000
0000
0000
0101
0000
0000
0000
0010
0000
0000
0000
0011
0000
0000
0000
0100
0000
0000
0000
0011
0000
0000
0000
0100
0000
0000
0000
1010
,
0000
0000
0000
0010
0000
0000
0000
1100
0000
0000
0000
0010
0000
0000
0000
0101
0000
0000
0000
0100
0000
0000
0000
1001
0000
0000
0000
0100
0000
0000
0000
0110
,
0000
0000
0000
0001
0000
0000
0000
1100
0000
0010
0000
0100
0000
1000
0000
0100
0000
0010
0000
0001
0000
0000
0000
1100
0000
1000
0000
1100
0000
0000
0000
0110
,
0000
0000
0000
0001
0000
0000
0000
1010
0000
0000
0000
1010
0000
0000
0000
0101
0000
0001
0000
0101
0000
0000
0000
1001
0000
0000
0000
0010
0000
0000
0000
1100
,
0000
0000
0000
1000
0000
0000
0000
0110
0000
0000
0000
0001
0000
0000
0000
1010
0000
0000
0000
0100
0000
0000
0000
0011
0000
0000
0000
1000
0000
0000
0000
0101
,
0000
0000
0000
0010
0000
0000
0000
1001
0000
0000
0000
0010
0000
0000
0000
1100
0000
0000
0000
0001
0000
0000
0000
1010
0000
0000
0000
0100
0000
0000
0000
0011
,
0000
0000
0000
1000
0000
0000
0000
0101
0000
0000
0000
1000
0000
1000
0000
0101
0000
1000
0000
0000
0000
0010
0000
0011
0000
1000
0000
0010
0000
0001
0000
0110
,
0000
0100
0000
0000
0000
0000
0000
1001
0000
0000
0000
0100
0000
0100
0000
1010
0000
0100
0000
0000
0000
0001
0000
1010
0000
0100
0000
0001
0000
0010
0000
0101
,
0000
1000
0000
0100
0000
0010
0000
0011
0000
0000
0000
0100
0000
0100
0000
1010
0000
0001
0000
0000
0000
0010
0000
0110
0000
1000
0000
0100
0000
0001
0000
1010
,
0000
1000
0000
0000
0000
0000
0000
1001
0000
0000
0000
0001
0000
0001
0000
0110
0000
1000
0000
0000
0000
1000
0000
1100
0000
0001
0000
0100
0000
1000
0000
1001
,
0000
0100
0000
0010
0000
0001
0000
0101
0000
0000
0000
1000
0000
1000
0000
0110
0000
0001
0000
0000
0000
0001
0000
1001
0000
0010
0000
0100
0000
0010
0000
1100
,
0000
0010
0000
0100
0000
1000
0000
1001
0000
0000
0000
0001
0000
0001
0000
1100
0000
0010
0000
0000
0000
0100
0000
0110
0000
0001
0000
0010
0000
0100
0000
1001
,
0000
0100
0000
0010
0000
0001
0000
1010
0000
0000
0000
0010
0000
0010
0000
1001
0000
0100
0000
0000
0000
0001
0000
0011
0000
0100
0000
0010
0000
0001
0000
0110
,
0000
0001
0000
0010
0000
0100
0000
0101
0000
0000
0000
1000
0000
1000
0000
0011
0000
1000
0000
0000
0000
0001
0000
1010
0000
0100
0000
0001
0000
1000
0000
0110
,
0000
0001
0000
1000
0000
0100
0000
0101
0000
0000
0000
1001
0000
0000
0000
0001
0000
0010
0000
0100
0000
0010
0000
1001
0000
0000
0000
0110
0000
0000
0000
0100
,
0000
0010
0000
0001
0000
0010
0000
1100
0000
0000
0000
0010
0000
0000
0000
0101
0000
0000
0000
0100
0000
0000
0000
1100
0000
0000
0000
0100
0000
0000
0000
1000
,
0000
0100
0000
0010
0000
0001
0000
1010
0000
0000
0000
0110
0000
0000
0000
0100
0000
0010
0000
0100
0000
1000
0000
0101
0000
0000
0000
0100
0000
0000
0000
0100
,
0000
0100
0000
0010
0000
0001
0000
0110
0000
0000
0000
0001
0000
0000
0000
1010
0000
0000
0000
0010
0000
0000
0000
0110
0000
0000
0000
1000
0000
0000
0000
0011
,
0000
0000
0000
0010
0000
0000
0000
1001
0000
0000
0000
0100
0000
0000
0000
1100
0000
0000
0000
0001
0000
0000
0000
0110
0000
0000
0000
1000
0000
0000
0000
1010
,
0000
0000
0000
0010
0000
0000
0000
0011
0000
0000
0000
1000
0000
0000
0000
0101
0000
0000
0000
0010
0000
0000
0000
1100
0000
0000
0000
0010
0000
0000
0000
1001
,
0000
0000
0000
0100
0000
0000
0000
0101
0000
0000
0000
0100
0000
0000
0000
0011
0000
0000
0000
1000
0000
0000
0000
0110
0000
0000
0000
0001
0000
0000
0000
0101
,
0000
0000
0000
1000
0000
0000
0000
1110
0000
0000
0000
1110
0000
0000
0000
1011
0000
0000
0000
1011
0000
0000
0000
2102
0000
0000
0000
0000
0000
0000
3003
0110
,
0000
0000
0000
0001
0000
0100
0000
1010
0000
0000
0000
1000
0000
0010
0000
0101
0000
0000
0000
0100
0000
0000
0000
1001
0000
0000
0000
0100
0000
0010
0000
0011
,
0000
0000
0000
0010
0000
0100
0000
1100
0000
0000
0000
0010
0000
0000
0000
0101
0000
0000
0000
1000
0000
0000
0000
1001
0000
0000
0000
0010
0000
0000
0000
1100
,
0000
0000
0000
0010
0000
0100
0000
1001
0000
0000
0000
0100
0000
0010
0000
1001
0000
0000
0000
0100
0000
0000
0000
0011
0000
0000
0000
1000
0000
0000
0000
1101
,
0000
0000
0000
0000
0000
0010
0000
0000
0000
0000
0000
0000
1011
0000
0000
0000
0000
0000
0000
1000
0000
0000
0000
0000
0000
0000
1110
0000
0000
0000
0000
0000
0000
0000
0010
0000
0000
0000
0000
0000
0000
0000
0101
0000
0000
0000
0000
0000
0000
0000
0010
0000
0000
0000
0000
0000
0000
0000
1001
0000
0000
0000
0000
0000
,
0000
1000
0000
1000
0000
1100
0000
0000
0000
0001
0000
0001
0000
0011
0000
0000
0000
0100
0000
0000
0000
0101
0000
0000
0000
0010
0000
0000
0000
1001
0000
0000
,
0000
0001
0000
0010
0000
1100
0000
0000
0000
1000
0000
0100
0000
0101
0000
0000
0000
0010
0000
0000
0000
1100
0000
0000
0000
0100
0000
0000
0000
1001
0000
0000
,
0000
1000
0000
0010
0000
0101
0000
0000
0000
0001
0000
0100
0000
1010
0000
0000
0000
0010
0000
0000
0000
0110
0000
0000
0000
0001
0000
0000
0000
1110
0000
0000
,
0000
0100
0000
0000
0000
0000
0000
0000
0111
0000
0000
0000
0000
0000
0000
1000
0000
0000
0000
0000
0000
0000
1011
0000
0000
0000
0000
0000
0000
0000
0000
0000
0100
0000
0000
0000
0000
0000
0000
0000
0101
0000
0000
0000
1000
0000
0000
0000
0100
0000
0000
0000
0000
0000
0000
0000
0011
0000
0000
0000
0100
0000
0000
0000
,
1000
0100
0010
0100
1000
0000
1010
0010
1010
0000
0110
0000
0001
0000
0110
0000
,
0110
0000
1001
1000
1001
0000
0110
0000
0001
0000
1010
0000
0100
0000
0101
0000
,
1000
1001
0010
0101
0100
1010
0001
0110
,
1000
0000
1001
0000
0010
0000
1100
0000
0010
0000
0101
0000
0010
0000
1001
0010
,
0100
1000
0100
0010
0001
0000
0101
0001
0101
0000
1010
0000
0100
0000
0011
0000
,
0011
0000
1100
1000
1100
0000
0011
0000
0100
0000
0101
0000
0010
0000
1010
0000
,
0100
0011
1000
0101
0010
1001
0100
0110
,
0001
1010
0010
0011
1000
0110
0010
1001
,
0010
0010
1100
0010
0000
0001
0011
0100
0010
0001
1010
1000
0000
0000
1101
0000
,
0001
0001
0110
1000
0000
0100
0011
0100
1000
0100
1001
0100
0010
0001
0101
0000
,
0100
0100
1001
0100
0000
0001
1001
0010
1000
0010
0101
0001
0000
0000
1110
0000
,
0010
0010
1100
0010
0000
0100
0101
0010
0100
0001
0110
0001
1000
0100
1011
0000
,
0100
0100
1010
0001
0000
0010
0011
0100
0010
0100
1010
0001
0010
1000
1101
0000
,
0010
0010
0101
1000
0000
1000
1100
0010
0001
0010
0101
1000
0100
0001
1110
0000
,
1000
1000
0110
1000
0000
1000
1010
0001
0100
1000
0101
1000
0100
0010
1101
0000
,
1001
1110
0110
1101
1100
1011
0110
0111
,
1000
0000
1001
0000
0100
0000
0101
1010
0101
0000
1010
0000
0001
0000
1100
0000
,
1100
0000
1001
0110
1001
0000
0110
0000
0000
0000
0000
0000
0000
1111
0000
0000
;

//---------------dance-single - Copied from----------------
#NOTES:
     dance-single:
     Copied from:
     Medium:
     9:
     0.825,0.817,1.000,0.027,1.000,716.000,303.000,5.000,0.000,34.000:
0000
0000
0000
0000
,
0000
0000
0000
0000
,
0000
0000
0000
0000
,
0000
0000
0000
0000
,
0000
1100
0000
0100
0000
0101
0000
0100
0000
0110
0000
0100
0010
1100
0000
0000
,
0000
1001
0000
0100
0000
0001
0000
0010
0000
1100
0010
1100
0000
0110
0000
0010
,
0000
0101
0000
0101
0000
1010
0100
1010
0000
1010
0000
0001
0000
0011
0000
0001
,
0000
1001
0000
0100
0000
1100
0000
0010
0000
0011
1000
0011
0000
0110
0000
1000
,
0000
1100
0000
1100
0000
0011
0010
0011
0000
2010
0000
0000
0000
0001
0000
0000
,
0000
0100
0000
0001
0000
0010
0000
0100
0000
3011
0000
1100
0000
1000
0100
0010
,
0100
1010
0000
0101
0000
0100
0010
0100
1000
0110
0000
0001
0000
1001
0000
0100
,
0000
0011
0000
0010
0000
0001
0010
0100
0010
0101
0000
1010
0000
0001
0010
0100
,
0010
1100
0000
0001
0000
0100
1000
1000
0100
0011
0000
0010
0000
1100
0000
0100
,
0000
1001
0000
0010
0000
0110
0000
0010
0000
1010
0000
0100
0000
0101
0000
0010
,
0000
1001
0000
0001
0000
1100
0000
0010
0000
0101
0000
0100
0000
1001
0000
0010
,
0000
1100
0000
1000
0000
1001
0000
0010
0000
0011
0000
0010
0000
1001
0000
0100
,
0000
0011
0000
1000
0000
0101
0000
0010
0000
1101
0000
1101
0000
1011
0000
1011
,
0000
0000
1220
0000
0000
0000
0000
0000
0000
0330
0110
0000
0000
0000
0001
0000
0010
0000
1100
0000
0000
0000
1000
0000
0100
0000
0011
0000
0000
0000
0100
0000
,
0000
0110
0000
0100
0010
0101
0000
0010
0100
1010
0000
1000
0000
0101
0000
0100
,
0000
0110
0000
1000
0000
1001
0000
0100
0100
0011
0000
0001
0001
1010
0000
0100
,
0000
0000
0000
0000
0011
0000
0000
0000
0000
0000
0000
0000
1000
0000
0000
0000
0000
0000
0000
0000
1101
0000
0000
0000
0000
0000
0000
0100
0000
0000
0000
0000
0000
0000
1011
0000
0000
0000
0000
0000
0000
0001
0000
0000
0000
0000
0000
0000
0111
0000
0000
0000
0000
0000
0000
0000
1000
0000
0000
0000
0000
0000
0000
0000
,
1100
0000
0100
0000
0011
0000
0100
0100
1010
0000
0010
0010
0101
0000
0100
0000
,
0011
0000
0001
0000
0011
0000
1000
1000
0110
0000
0010
0100
1100
0000
0001
0000
,
1010
0000
0100
0000
1001
0000
0100
0001
0011
0000
0010
0100
1010
0000
0100
0000
,
1001
0000
0000
0000
0000
0000
0000
0000
0010
0000
0000
0000
0000
0000
0000
0000
1101
0000
0000
0000
0000
0000
0000
0100
0000
0000
0000
0000
0000
0000
1011
0000
0000
0000
0000
0000
0000
0010
0000
0000
0000
0000
0000
0000
1110
0000
0000
0000
0000
0000
0000
0000
0000
0000
0001
0000
0000
0000
0000
0000
0000
0000
1010
0000
,
0000
0001
0000
0010
0000
0000
0000
1001
0000
0100
0000
0010
0000
0001
0000
0010
0000
0100
0000
1000
0000
0000
0000
0110
0000
0010
0000
0110
0000
0000
0000
1001
,
0000
0000
0000
0100
0000
0000
0000
1100
0000
0000
0000
1100
0000
0000
0000
0101
0000
0100
0000
0101
0000
0000
0000
1001
0000
0000
0000
0010
0000
0000
0000
1100
,
0000
0000
0000
1000
0000
0000
0000
0101
0000
0000
0000
0010
0000
0000
0000
0011
0000
0000
0000
0100
0000
0000
0000
0011
0000
0000
0000
0100
0000
0000
0000
1010
,
0000
0000
0000
0010
0000
0000
0000
1100
0000
0000
0000
0010
0000
0000
0000
0101
0000
0000
0000
0100
0000
0000
0000
1001
0000
0000
0000
0100
0000
0000
0000
0110
,
0000
0000
0000
0001
0000
0000
0000
1100
0000
0010
0000
0100
0000
1000
0000
0100
0000
0010
0000
0001
0000
0000
0000
1100
0000
1000
0000
1100
0000
0000
0000
0110
,
0000
0000
0000
0001
0000
0000
0000
1010
0000
0000
0000
1010
0000
0000
0000
0101
0000
0001
0000
0101
0000
0000
0000
1001
0000
0000
0000
0010
0000
0000
0000
1100
,
0000
0000
0000
1000
0000
0000
0000
0110
0000
0000
0000
0001
0000
0000
0000
1010
0000
0000
0000
0100
0000
0000
0000
0011
0000
0000
0000
1000
0000
0000
0000
0101
,
0000
0000
0000
0010
0000
0000
0000
1001
0000
0000
0000
0010
0000
0000
0000
1100
0000
0000
0000
0001
0000
0000
0000
1010
0000
0000
0000
0100
0000
0000
0000
0011
,
0000
0000
0000
1000
0000
0000
0000
0101
0000
0000
0000
1000
0000
1000
0000
0101
0000
1000
0000
0000
0000
0010
0000
0011
0000
1000
0000
0010
0000
0001
0000
0110
,
0000
0100
0000
0000
0000
0000
0000
1001
0000
0000
0000
0100
0000
0100
0000
1010
0000
0100
0000
0000
0000
0001
0000
1010
0000
0100
0000
0001
0000
0010
0000
0101
,
0000
1000
0000
0100
0000
0010
0000
0011
0000
0000
0000
0100
0000
0100
0000
1010
0000
0001
0000
0000
0000
0010
0000
0110
0000
1000
0000
0100
0000
0001
0000
1010
,
0000
1000
0000
0000
0000
0000
0000
1001
0000
0000
0000
0001
0000
0001
0000
0110
0000
1000
0000
0000
0000
1000
0000
1100
0000
0001
0000
0100
0000
1000
0000
1001
,
0000
0100
0000
0010
0000
0001
0000
0101
0000
0000
0000
1000
0000
1000
0000
0110
0000
0001
0000
0000
0000
0001
0000
1001
0000
0010
0000
0100
0000
0010
0000
1100
,
0000
0010
0000
0100
0000
1000
0000
1001
0000
0000
0000
0001
0000
0001
0000
1100
0000
0010
0000
0000
0000
0100
0000
0110
0000
0001
0000
0010
0000
0100
0000
1001
,
0000
0100
0000
0010
0000
0001
0000
1010
0000
0000
0000
0010
0000
0010
0000
1001
0000
0100
0000
0000
0000
0001
0000
0011
0000
0100
0000
0010
0000
0001
0000
0110
,
0000
0001
0000
0010
0000
0100
0000
0101
0000
0000
0000
1000
0000
1000
0000
0011
0000
1000
0000
0000
0000
0001
0000
1010
0000
0100
0000
0001
0000
1000
0000
0110
,
0000
0001
0000
1000
0000
0100
0000
0101
0000
0000
0000
1001
0000
0000
0000
0001
0000
0010
0000
0100
0000
0010
0000
1001
0000
0000
0000
0110
0000
0000
0000
0100
,
0000
0010
0000
0001
0000
0010
0000
1100
0000
0000
0000
0010
0000
0000
0000
0101
0000
0000
0000
0100
0000
0000
0000
1100
0000
0000
0000
0100
0000
0000
0000
1000
,
0000
0100
0000
0010
0000
0001
0000
1010
0000
0000
0000
0110
0000
0000
0000
0100
0000
0010
0000
0100
0000
1000
0000
0101
0000
0000
0000
0100
0000
0000
0000
0100
,
0000
0100
0000
0010
0000
0001
0000
0110
0000
0000
0000
0001
0000
0000
0000
1010
0000
0000
0000
0010
0000
0000
0000
0110
0000
0000
0000
1000
0000
0000
0000
0011
,
0000
0000
0000
0010
0000
0000
0000
1001
0000
0000
0000
0100
0000
0000
0000
1100
0000
0000
0000
0001
0000
0000
0000
0110
0000
0000
0000
1000
0000
0000
0000
1010
,
0000
0000
0000
0010
0000
0000
0000
0011
0000
0000
0000
1000
0000
0000
0000
0101
0000
0000
0000
0010
0000
0000
0000
1100
0000
0000
0000
0010
0000
0000
0000
1001
,
0000
0000
0000
0100
0000
0000
0000
0101
0000
0000
0000
0100
0000
0000
0000
0011
0000
0000
0000
1000
0000
0000
0000
0110
0000
0000
0000
0001
0000
0000
0000
0101
,
0000
0000
0000
1000
0000
0000
0000
1110
0000
0000
0000
1110
0000
0000
0000
1011
0000
0000
0000
1011
0000
0000
0000
2102
0000
0000
0000
0000
0000
0000
3003
0110
,
0000
0000
0000
0001
0000
0100
0000
1010
0000
0000
0000
1000
0000
0010
0000
0101
0000
0000
0000
0100
0000
0000
0000
1001
0000
0000
0000
0100
0000
0010
0000
0011
,
0000
0000
0000
0010
0000
0100
0000
1100
0000
0000
0000
0010
0000
0000
0000
0101
0000
0000
0000
1000
0000
0000
0000
1001
0000
0000
0000
0010
0000
0000
0000
1100
,
0000
0000
0000
0010
0000
0100
0000
1001
0000
0000
0000
0100
0000
0010
0000
1001
0000
0000
0000
0100
0000
0000
0000
0011
0000
0000
0000
1000
0000
0000
0000
1101
,
0000
0000
0000
0000
0000
0010
0000
0000
0000
0000
0000
0000
1011
0000
0000
0000
0000
0000
0000
1000
0000
0000
0000
0000
0000
0000
1110
0000
0000
0000
0000
0000
0000
0000
0010
0000
0000
0000
0000
0000
0000
0000
0101
0000
0000
0000
0000
0000
0000
0000
0010
0000
0000
0000
0000
0000
0000
0000
1001
0000
0000
0000
0000
0000
,
0000
1000
0000
1000
0000
1100
0000
0000
0000
0001
0000
0001
0000
0011
0000
0000
0000
0100
0000
0000
0000
0101
0000
0000
0000
0010
0000
0000
0000
1001
0000
0000
,
0000
0001
0000
0010
0000
1100
0000
0000
0000
1000
0000
0100
0000
0101
0000
0000
0000
0010
0000
0000
0000
1100
0000
0000
0000
0100
0000
0000
0000
1001
0000
0000
,
0000
1000
0000
0010
0000
0101
0000
0000
0000
0001
0000
0100
0000
1010
0000
0000
0000
0010
0000
0000
0000
0110
0000
0000
0000
0001
0000
0000
0000
1110
0000
0000
,
0000
0100
0000
0000
0000
0000
0000
0000
0111
0000
0000
0000
0000
0000
0000
1000
0000
0000
0000
0000
0000
0000
1011
0000
0000
0000
0000
0000
0000
0000
0000
0000
0100
0000
0000
0000
0000
0000
0000
0000
0101
0000
0000
0000
1000
0000
0000
0000
0100
0000
0000
0000
0000
0000
0000
0000
0011
0000
0000
0000
0100
0000
0000
0000
,
1000
0100
0010
0100
1000
0000
1010
0010
1010
0000
0110
0000
0001
0000
0110
0000
,
0110
0000
1001
1000
1001
0000
0110
0000
0001
0000
1010
0000
0100
0000
0101
0000
,
1000
1001
0010
0101
0100
1010
0001
0110
,
1000
0000
1001
0000
0010
0000
1100
0000
0010
0000
0101
0000
0010
0000
1001
0010
,
0100
1000
0100
0010
0001
0000
0101
0001
0101
0000
1010
0000
0100
0000
0011
0000
,
0011
0000
1100
1000
1100
0000
0011
0000
0100
0000
0101
0000
0010
0000
1010
0000
,
0100
0011
1000
0101
0010
1001
0100
0110
,
0001
1010
0010
0011
1000
0110
0010
1001
,
0010
0010
1100
0010
0000
0001
0011
0100
0010
0001
1010
1000
0000
0000
1101
0000
,
0001
0001
0110
1000
0000
0100
0011
0100
1000
0100
1001
0100
0010
0001
0101
0000
,
0100
0100
1001
0100
0000
0001
1001
0010
1000
0010
0101
0001
0000
0000
1110
0000
,
0010
0010
1100
0010
0000
0100
0101
0010
0100
0001
0110
0001
1000
0100
1011
0000
,
0100
0100
1010
0001
0000
0010
0011
0100
0010
0100
1010
0001
0010
1000
1101
0000
,
0010
0010
0101
1000
0000
1000
1100
0010
0001
0010
0101
1000
0100
0001
1110
0000
,
1000
1000
0110
1000
0000
1000
1010
0001
0100
1000
0101
1000
0100
0010
1101
0000
,
1001
1110
0110
1101
1100
1011
0110
0111
,
1000
0000
1001
0000
0100
0000
0101
1010
0101
0000
1010
0000
0001
0000
1100
0000
,
1100
0000
1001
0110
1001
0000
0110
0000
0000
0000
0000
0000
0000
1111
0000
0000
;
